osu file format v14

[General]
AudioFilename: Day to Story (TV Size).mp3
AudioLeadIn: 1500
PreviewTime: 57297
Countdown: 0
SampleSet: Soft
StackLeniency: 0.3
Mode: 0
LetterboxInBreaks: 0
WidescreenStoryboard: 0

[Editor]
DistanceSpacing: 1.5
BeatDivisor: 4
GridSize: 4
TimelineZoom: 4.500003

[Metadata]
Title:Day to Story (TV Size)
TitleUnicode:Day to Story (TV Size)
Artist:Sadohara Kaori
ArtistUnicode:佐土原かおり
Creator:N a s y a
Version:Hard
Source:デート・ア・ライブ Ⅱ
Tags:ending date a live 2 Vettel Nasya N_a_s_y_a
BeatmapID:407040
BeatmapSetID:167604

[Difficulty]
HPDrainRate:5
CircleSize:4
OverallDifficulty:6
ApproachRate:7
SliderMultiplier:1.4
SliderTickRate:1

[Events]
//Background and Video events
0,0,"bg.jpg",0,0
Video,-235,"video.avi",0,0
//Break Periods
//Storyboard Layer 0 (Background)
//Storyboard Layer 1 (Fail)
//Storyboard Layer 2 (Pass)
//Storyboard Layer 3 (Foreground)
//Storyboard Sound Samples
//Background Colour Transformations
3,100,163,162,255

[TimingPoints]
1547,428.571428571429,4,2,2,70,1,0
14881,333.333333333333,4,2,1,70,1,0
34547,-100,4,2,2,70,0,0
34880,-100,4,2,1,70,0,0
46880,-133.333333333333,4,2,1,70,0,0
52214,-100,4,2,1,70,0,0
57547,-100,4,2,1,70,0,1
78880,-100,4,2,4,70,0,1
79047,-100,4,2,1,70,0,1
84214,-100,4,2,1,70,0,0
87547,-100,4,2,3,60,0,0
87714,-100,4,2,1,70,0,0
88047,-100,4,2,3,60,0,0
88547,-100,4,2,2,60,0,0
88880,-100,4,2,2,50,0,0
89214,-100,4,2,2,40,0,0
89547,-100,4,2,2,30,0,0
90047,-100,4,2,2,5,0,0

[Colours]
Combo1 : 255,255,128
Combo2 : 128,255,255
Combo3 : 255,153,51
Combo4 : 0,128,255

[HitObjects]
96,224,1547,6,0,B|151:222|196:266|196:319,1,140,2|0,0:0|0:0,0:0:0:0:
320,368,2404,2,0,B|369:386|420:378|460:352,1,140,2|0,0:0|0:0,0:0:0:0:
372,240,3261,2,0,B|323:222|272:230|232:256,2,140,0|0|2,0:0|0:0|0:0,0:0:0:0:
472,144,4547,1,0,0:0:0:0:
472,144,4975,6,0,L|468:0,1,140,2|0,0:0|0:0,0:0:0:0:
340,60,5832,2,0,L|343:199,1,140,2|0,0:0|0:0,0:0:0:0:
212,252,6689,2,0,L|208:112,2,140,0|0|2,0:0|0:0|0:0,0:0:0:0:
346,298,7975,5,0,0:0:0:0:
346,298,8404,2,0,B|278:224|181:195|90:210,2,280,2|2|0,0:0|0:0|0:0,0:0:0:0:
404,172,10547,2,0,L|408:28,2,140,0|2|0,0:0|0:0|0:0,0:0:0:0:
256,192,11832,12,2,13547,0:0:0:0:
148,192,14881,6,0,B|224:226|304:236,1,140,4|8,3:2|0:0,0:0:0:0:
364,192,15381,2,0,L|360:96,1,70,2|0,0:0|0:0,0:0:0:0:
276,88,15714,1,2,0:0:0:0:
276,88,15880,2,0,L|280:184,1,70,8|0,0:0|0:0,0:0:0:0:
212,224,16214,6,0,B|164:233|116:224,2,70,2|2|8,3:2|0:0|0:0,0:0:0:0:
292,268,16714,2,0,B|365:256|436:276,1,140,2|2,0:0|0:0,0:0:0:0:
475,195,17214,1,8,0:0:0:0:
390,161,17380,5,0,0:0:0:0:
390,161,17464,1,0,0:0:0:0:
390,161,17547,2,0,B|376:123|373:84,1,70,2|0,3:2|0:0,0:0:0:0:
317,21,17880,2,0,B|269:35|229:61,1,70,8|2,0:0|0:0,0:0:0:0:
170,89,18214,1,0,0:0:0:0:
83,61,18380,1,2,0:0:0:0:
52,146,18547,2,0,B|44:192|48:238,1,70,8|0,0:0|0:0,0:0:0:0:
144,256,18880,6,0,B|152:210|148:164,2,70,4|2|8,3:2|0:0|0:0,0:0:0:0:
128,348,19380,1,4,0:0:0:0:
128,348,19714,2,0,B|209:376|292:372,1,140,4|0,0:0|0:0,0:0:0:0:
333,312,20214,6,0,L|346:222,2,70,4|0|8,3:2|0:0|0:0,0:0:0:0:
245,338,20714,2,0,B|164:305|164:305|99:305,1,140,2|2,0:0|0:0,0:0:0:0:
23,280,21214,2,0,L|14:183,1,70,8|0,0:0|0:0,0:0:0:0:
96,165,21547,6,0,L|103:255,2,70,2|2|8,3:2|0:0|0:0,0:0:0:0:
163,103,22047,2,0,B|247:90|247:90|323:100,1,140,2|2,0:0|0:0,0:0:0:0:
390,115,22547,1,8,0:0:0:0:
436,193,22714,5,0,0:0:0:0:
436,193,22797,1,0,0:0:0:0:
436,193,22880,2,0,L|429:273,1,70,4|0,3:2|0:2,0:0:0:0:
354,315,23214,2,0,B|317:311|280:305,1,70,8|2,0:0|3:2,0:0:0:0:
236,228,23547,2,0,B|276:220|315:223,1,70,0|2,0:0|0:0,0:0:0:0:
328,136,23880,2,0,L|332:68,3,35,8|8|8|8,0:0|0:0|0:0|0:0,0:0:0:0:
332,76,24214,6,0,L|432:68,2,70,8|2|2,0:0|0:0|0:0,0:0:0:0:
243,85,24714,1,12,3:2:0:0:
243,85,25047,2,0,B|259:137|259:137|221:294,1,210,4|4,3:2|0:0,0:0:0:0:
356,352,25880,5,8,0:0:0:0:
356,352,26214,2,0,L|364:256,1,70,2|2,0:0|0:0,0:0:0:0:
340,192,26547,2,0,B|296:204|252:208,1,70,8|0,0:0|0:0,0:0:0:0:
188,168,26880,6,0,B|152:171|119:181,2,70,2|0|8,0:0|0:0|0:0,0:0:0:0:
271,205,27380,2,0,L|280:348,1,140,2|2,0:0|0:0,0:0:0:0:
368,372,27880,1,8,0:0:0:0:
442,319,28047,2,0,L|478:292,2,35,0|0|2,0:0|0:0|0:0,0:0:0:0:
374,176,28547,6,0,L|379:245,1,70,8|0,0:0|0:0,0:0:0:0:
304,298,28880,1,2,0:0:0:0:
241,232,29047,1,2,0:0:0:0:
178,298,29214,2,0,B|129:303|82:294,1,70,8|0,0:0|0:0,0:0:0:0:
53,224,29547,6,0,B|53:174|67:128,2,70,2|0|8,0:0|0:0|0:0,0:0:0:0:
106,297,30047,2,0,B|177:311|242:339,1,140,2|2,0:0|0:0,0:0:0:0:
323,374,30547,1,8,0:0:0:0:
309,283,30714,2,0,L|302:220,2,35,0|0|2,0:0|0:0|0:0,0:0:0:0:
185,346,31214,6,0,L|115:348,1,70,8|0,0:0|0:0,0:0:0:0:
170,243,31547,2,0,L|265:240,2,70,2|2|8,0:0|0:0|0:0,0:0:0:0:
79,233,32047,5,0,0:0:0:0:
79,233,32214,2,0,B|89:157|94:81,1,140,2|8,0:0|0:0,0:0:0:0:
192,55,32714,2,0,B|182:131|177:207,1,140,2|2,0:0|0:0,0:0:0:0:
172,285,33214,1,8,0:0:0:0:
255,319,33380,5,0,0:0:0:0:
255,319,33464,1,0,0:0:0:0:
255,319,33547,2,0,B|304:313|352:315,1,70,2|0,0:0|0:0,0:0:0:0:
408,279,33880,2,0,L|412:191,1,70,8|0,0:0|0:0,0:0:0:0:
320,211,34214,2,0,L|324:123,1,70,2|2,0:0|0:0,0:0:0:0:
261,74,34547,2,0,L|225:42,3,35,10|2|2|2,0:0|0:0|0:0|0:0,0:0:0:0:
213,34,34880,6,0,L|201:118,2,70,10|0|0,3:2|0:0|3:2,0:0:0:0:
121,30,35380,2,0,L|97:178,1,140,8|4,3:2|0:0,0:0:0:0:
85,258,35880,2,0,L|93:310,4,35,8|0|4|4|4,0:3|0:3|0:3|0:3|0:0,0:0:0:0:
219,339,36547,6,0,L|315:334,1,70,8|0,0:0|0:0,0:0:0:0:
379,322,36880,2,0,L|387:234,1,70,2|2,0:0|0:0,0:0:0:0:
295,243,37214,2,0,L|313:166,1,70,8|0,0:0|0:0,0:0:0:0:
378,321,37547,6,0,B|337:360|276:364|231:338,1,140,2|8,0:0|0:0,0:0:0:0:
223,257,38047,2,0,B|177:238|126:250|93:280,1,140,2|2,0:0|0:0,0:0:0:0:
38,354,38547,1,8,0:0:0:0:
128,368,38714,2,0,L|195:378,2,35,0|0|2,0:0|0:0|0:0,0:0:0:0:
59,229,39214,6,0,L|55:133,1,70,8|0,0:0|0:0,0:0:0:0:
160,112,39547,2,0,L|156:208,1,70,2|2,0:0|0:0,0:0:0:0:
185,268,39880,2,0,B|264:283|342:281,1,140,8|2,0:0|0:0,0:0:0:0:
415,278,40380,1,0,0:0:0:0:
364,201,40547,1,8,0:0:0:0:
452,178,40714,6,0,B|495:207|518:253|519:300,1,140,2|2,0:3|0:3,0:0:0:0:
446,351,41214,1,8,0:0:0:0:
376,293,41380,1,0,0:0:0:0:
376,293,41464,1,0,0:0:0:0:
376,293,41547,2,0,L|384:205,1,70,4|0,0:0|0:0,0:0:0:0:
301,180,41880,2,0,L|293:268,1,70,8|0,0:0|0:0,0:0:0:0:
205,264,42214,2,0,L|213:176,1,70,2|2,0:0|0:0,0:0:0:0:
125,160,42547,2,0,L|117:248,1,70,8|0,0:0|0:0,0:0:0:0:
130,320,42880,6,0,B|165:360|222:368|265:345,1,140,2|8,0:0|0:0,0:0:0:0:
314,276,43380,2,0,B|359:256|410:269|440:303,1,140,2|2,0:0|0:0,0:0:0:0:
364,353,43880,1,8,0:0:0:0:
272,356,44047,5,0,0:0:0:0:
272,356,44130,1,0,0:0:0:0:
272,356,44214,2,0,L|192:360,1,70,4|0,0:0|0:0,0:0:0:0:
176,272,44547,2,0,L|106:275,1,70,8|0,0:0|0:0,0:0:0:0:
14,278,44880,1,2,0:0:0:0:
46,192,45047,1,2,0:0:0:0:
121,140,45214,2,0,B|168:122|217:128,1,70,8|0,0:0|0:0,0:0:0:0:
252,192,45547,6,0,L|256:272,1,70,4|2,0:0|0:0,0:0:0:0:
345,275,45880,2,0,L|341:195,1,70,8|2,0:0|0:0,0:0:0:0:
333,113,46214,1,8,0:3:0:0:
241,105,46380,1,4,0:3:0:0:
149,97,46547,1,8,0:0:0:0:
58,89,46714,2,0,L|18:85,2,35,0|0|4,0:0|0:0|0:0,0:0:0:0:
108,192,47214,5,2,0:0:0:0:
108,192,47547,2,0,L|112:317,1,105.000004005432,12|2,0:0|0:0,0:0:0:0:
156,361,48047,2,0,L|228:368,1,52.5000020027161,8|2,0:0|0:3,0:0:0:0:
244,295,48380,2,0,L|313:312,1,52.5000020027161,2|2,0:0|0:0,0:0:0:0:
452,322,48880,6,0,L|464:200,2,105.000004005432,12|2|4,0:0|0:0|0:0,0:0:0:0:
299,360,49880,2,0,L|243:365,1,52.5000020027161,2|2,0:0|0:0,0:0:0:0:
186,313,50214,6,0,L|197:188,1,105.000004005432,12|8,0:0|0:0,0:0:0:0:
242,144,50714,2,0,L|349:139,1,105.000004005432,2|8,0:3|0:0,0:0:0:0:
394,202,51214,2,0,L|341:215,1,52.5000020027161,2|0,0:0|0:0,0:0:0:0:
299,280,51547,2,0,L|352:293,1,52.5000020027161,12|2,0:0|0:0,0:0:0:0:
393,358,51880,2,0,L|340:371,1,52.5000020027161,8|0,0:0|0:0,0:0:0:0:
236,365,52214,6,0,L|225:274,1,70,4|0,0:0|0:0,0:0:0:0:
136,286,52547,2,0,L|149:188,1,70,2|0,0:0|0:0,0:0:0:0:
197,141,52880,2,0,L|287:134,1,70,2|0,0:0|0:0,0:0:0:0:
326,229,53214,2,0,L|236:236,1,70,10|0,0:0|0:0,0:0:0:0:
165,235,53547,5,2,0:0:0:0:
87,187,53714,1,0,0:0:0:0:
48,104,53880,2,0,L|56:23,1,70,2|0,0:0|0:0,0:0:0:0:
145,19,54214,2,0,L|195:16,3,35,8|8|4|4,0:0|0:3|0:3|0:3,0:0:0:0:
206,26,54547,2,0,L|200:111,1,70,12|0,0:2|0:2,0:0:0:0:
192,186,54880,5,6,0:2:0:0:
283,184,55047,2,0,L|359:182,1,70,2|8,0:0|0:0,0:0:0:0:
261,274,55380,2,0,L|112:281,2,140,4|2|4,0:0|0:3|0:2,0:0:0:0:
129,150,56380,2,0,L|54:153,1,70,4|6,0:3|0:3,0:0:0:0:
156,36,57547,6,0,B|203:29|248:32,1,70,4|0,0:0|0:0,0:0:0:0:
316,32,57880,1,8,0:0:0:0:
268,108,58047,2,0,B|248:156|244:207|252:254,1,140,2|2,0:0|0:0,0:0:0:0:
320,304,58547,2,0,B|371:298|421:300,1,70,8|0,0:0|0:0,0:0:0:0:
432,220,58880,6,0,L|440:136,2,70,2|2|8,0:0|0:0|0:0,0:0:0:0:
340,216,59380,2,0,B|257:211|180:240,1,140,2|2,0:0|0:0,0:0:0:0:
120,272,59880,1,8,0:0:0:0:
96,184,60047,5,0,0:0:0:0:
96,184,60130,1,0,0:0:0:0:
96,184,60214,2,0,L|76:96,2,70,2|0|8,0:0|0:0|0:0,0:0:0:0:
184,204,60714,2,0,B|237:227|258:291|228:340,1,140,2|2,0:0|0:0,0:0:0:0:
152,352,61214,1,8,0:0:0:0:
60,344,61380,2,0,L|-4:340,2,35,0|0|4,0:0|0:0|3:2,0:0:0:0:
120,272,61714,5,2,0:0:0:0:
120,272,61880,2,0,L|100:200,1,70,8|4,3:2|0:0,0:0:0:0:
192,196,62214,2,0,L|172:124,1,70,0|2,3:2|0:0,0:0:0:0:
264,116,62547,2,0,L|244:44,1,70,8|0,0:0|0:0,0:0:0:0:
160,20,62880,6,0,B|85:46|8:48,1,140,4|8,0:0|0:0,0:0:0:0:
21,138,63380,2,0,L|29:286,1,140,2|2,0:0|0:0,0:0:0:0:
97,337,63880,1,8,0:0:0:0:
183,307,64047,5,0,0:0:0:0:
183,307,64130,1,0,0:0:0:0:
183,307,64214,2,0,L|175:230,1,70,4|2,0:0|0:0,0:0:0:0:
165,146,64547,1,8,0:0:0:0:
254,127,64714,2,0,B|309:123|309:123|391:147,1,140,2|2,0:0|0:0,0:0:0:0:
316,232,65214,2,0,L|240:236,1,70,8|0,0:0|0:0,0:0:0:0:
157,179,65547,6,0,L|74:183,2,70,4|0|8,0:0|0:0|0:0,0:0:0:0:
168,84,66047,1,2,0:3:0:0:
168,84,66380,1,2,0:3:0:0:
168,84,66714,6,0,L|332:80,1,140,4|2,0:0|0:0,0:0:0:0:
372,144,67214,2,0,L|360:228,1,70,8|2,0:0|0:0,0:0:0:0:
300,280,67547,2,0,L|240:288,3,35,8|8|8|8,0:0|0:0|0:0|0:0,0:0:0:0:
240,280,67880,2,0,L|205:275,3,35,8|0|4|4,0:3|0:3|0:3|0:3,0:0:0:0:
180,276,68214,6,0,B|157:226|103:202|53:212,1,140,4|8,0:0|0:0,0:0:0:0:
44,120,68714,2,0,L|52:44,1,70,2|0,0:0|0:0,0:0:0:0:
140,36,69047,2,0,L|132:112,1,70,2|8,0:0|0:0,0:0:0:0:
180,184,69380,5,0,0:0:0:0:
180,184,69547,2,0,B|232:160|289:172|327:207,1,140,2|8,0:0|0:0,0:0:0:0:
340,284,70047,2,0,B|381:312|431:314|473:296,1,140,2|2,0:0|0:0,0:0:0:0:
500,208,70547,1,8,0:0:0:0:
424,156,70714,5,0,0:0:0:0:
424,156,70797,1,0,0:0:0:0:
424,156,70880,2,0,B|385:142|344:140,1,70,2|0,0:0|0:0,0:0:0:0:
280,192,71214,2,0,L|268:268,1,70,8|2,0:0|0:0,0:0:0:0:
192,312,71547,2,0,B|156:315|123:327,2,70,0|2|8,0:0|0:0|0:0,0:0:0:0:
276,348,72047,2,0,L|328:356,2,35,0|0|4,0:0|0:0|3:2,0:0:0:0:
256,260,72380,5,2,0:0:0:0:
256,260,72547,2,0,L|240:168,1,70,8|4,3:2|0:0,0:0:0:0:
336,184,72880,2,0,L|320:92,1,70,0|2,3:2|0:0,0:0:0:0:
416,108,73214,2,0,L|400:16,1,70,8|0,0:0|0:0,0:0:0:0:
312,24,73547,6,0,B|262:13|213:21|171:41,1,140,4|8,0:0|0:0,0:0:0:0:
120,108,74047,2,0,B|103:160|68:201|23:224,1,140,2|2,0:0|0:0,0:0:0:0:
56,304,74547,2,0,L|120:312,3,35,8|8|8|8,0:0|0:0|0:0|0:0,0:0:0:0:
116,312,74880,6,0,B|133:260|168:219|213:196,1,140,4|8,0:0|0:0,0:0:0:0:
280,160,75380,1,2,0:3:0:0:
280,160,75714,1,2,0:3:0:0:
280,160,76047,6,0,L|264:320,1,140,4|2,0:0|0:0,0:0:0:0:
340,352,76547,1,8,0:0:0:0:
424,312,76714,1,0,0:0:0:0:
468,232,76880,2,0,B|484:187|480:140,1,70,2|2,0:0|0:0,0:0:0:0:
404,112,77214,2,0,B|388:157|392:204,1,70,8|0,0:0|0:0,0:0:0:0:
336,252,77547,5,4,0:0:0:0:
244,260,77714,1,2,0:0:0:0:
154,271,77880,2,0,L|82:278,1,70,4|2,0:0|0:0,0:0:0:0:
62,177,78214,2,0,L|94:161,3,35,8|8|8|8,0:0|0:0|0:0|0:0,0:0:0:0:
121,161,78547,2,0,L|157:169,3,35,8|0|4|4,0:3|0:3|0:3|0:3,0:0:0:0:
184,164,78880,6,0,L|236:88,1,70,12|0,0:0|0:0,0:0:0:0:
329,109,79214,2,0,L|277:185,1,70,8|0,0:0|0:0,0:0:0:0:
334,262,79547,2,0,L|386:186,1,70,8|2,0:0|0:0,0:0:0:0:
478,215,79880,2,0,L|426:291,1,70,8|2,0:0|0:0,0:0:0:0:
361,345,80214,6,0,B|320:344|279:340,1,70,8|0,0:0|0:0,0:0:0:0:
194,236,80547,2,0,B|235:237|276:241,1,70,8|0,0:0|0:0,0:0:0:0:
366,216,80880,2,0,L|379:136,1,70,8|2,0:0|0:0,0:0:0:0:
292,63,81214,2,0,L|279:143,1,70,8|2,0:0|0:0,0:0:0:0:
195,193,81547,6,0,L|114:195,1,70,8|0,0:0|0:0,0:0:0:0:
92,294,81880,2,0,L|173:292,1,70,8|0,0:0|0:0,0:0:0:0:
247,325,82214,2,0,L|328:323,1,70,8|2,0:0|0:0,0:0:0:0:
400,360,82547,2,0,L|481:358,1,70,8|2,0:0|0:0,0:0:0:0:
444,256,82880,6,0,L|363:258,1,70,8|0,0:0|0:0,0:0:0:0:
287,196,83214,2,0,B|268:167|260:134|262:102,1,70,8|0,0:0|0:0,0:0:0:0:
318,42,83547,2,0,L|352:35,3,35,8|8|8|8,0:0|0:0|0:0|0:0,0:0:0:0:
377,48,83880,2,0,L|411:54,3,35,8|8|4|4,0:0|0:3|0:3|0:3,0:0:0:0:
438,45,84214,5,4,0:0:0:0:
412,116,85547,6,0,B|300:72|260:160|124:96,1,280,4|0,0:0|0:0,0:0:0:0:
76,32,86380,1,2,0:0:0:0:
44,116,86547,2,0,B|33:154|36:192,1,70,8|2,0:0|0:0,0:0:0:0:
108,240,86880,1,8,3:2:0:0:
108,240,87047,1,8,3:2:0:0:
280,180,87380,5,10,3:2:0:0:
280,180,87464,1,10,3:2:0:0:
280,180,87547,2,0,L|276:272,1,70,2|4,0:2|3:2,0:0:0:0:
188,264,87880,2,0,L|192:356,1,70,0|6,3:2|0:0,0:0:0:0:
256,192,88214,12,0,90047,0:0:0:0:
